好小子 发表于 2020-2-24 15:19:47




[attach]101327[/attach]






General
Unique ID                   : 231448089023275942423156421015545623254 (0xAE1F47D04C151327B1BB41258CFCB2D6)
Complete name               :
Format                      : Matroska
Format version              : Version 4
File size                   : 4.38 GiB
Duration                    : 1 h 39 min
Overall bit rate            : 6 282 kb/s
Encoded date                : UTC 2019-12-22 11:39:35
Writing application         : mkvmerge v7.5.0 ('Glass Culture') 64bit built on Jan  4 2015 16:48:44
Writing library             : libebml v1.3.1 + libmatroska v1.4.2

Video
ID                          : 1
Format                      : AVC
Format/Info                 : Advanced Video Codec
Format profile              : High 10@L5.2
Format settings             : CABAC / 4 Ref Frames
Format settings, CABAC      : Yes
Format settings, Reference  : 4 frames
Codec ID                    : V_MPEG4/ISO/AVC
Duration                    : 1 h 39 min
Bit rate                    : 5 000 kb/s
Width                       : 1 920 pixels
Height                      : 816 pixels
Display aspect ratio        : 2.35:1
Frame rate mode             : Constant
Frame rate                  : 23.976 (24000/1001) FPS
Color space                 : YUV
Chroma subsampling          : 4:2:0
Bit depth                   : 10 bits
Scan type                   : Progressive
Bits/(Pixel*Frame)          : 0.133
Stream size                 : 3.49 GiB (80%)
Title                       : 迷你特工队
Writing library             : x264 core 157 r2969 d4099dd
Encoding settings           : cabac=1 / ref=3 / deblock=1:0:0 / analyse=0x3:0x113 / me=hex / subme=7 / psy=1 / psy_rd=1.00:0.00 / mixed_ref=1 / me_range=16 / chroma_me=1 / trellis=1 / 8x8dct=1 / cqm=0 / deadzone=21,11 / fast_pskip=1 / chroma_qp_offset=-2 / threads=6 / lookahead_threads=1 / sliced_threads=0 / nr=0 / decimate=1 / interlaced=0 / bluray_compat=0 / constrained_intra=0 / bframes=3 / b_pyramid=2 / b_adapt=1 / b_bias=0 / direct=1 / weightb=1 / open_gop=0 / weightp=2 / keyint=240 / keyint_min=23 / scenecut=40 / intra_refresh=0 / rc_lookahead=40 / rc=2pass / mbtree=1 / bitrate=5000 / ratetol=1.0 / qcomp=0.60 / qpmin=0 / qpmax=81 / qpstep=4 / cplxblur=20.0 / qblur=0.5 / vbv_maxrate=300000 / vbv_bufsize=300000 / nal_hrd=none / filler=0 / ip_ratio=1.40 / aq=1:1.00
Language                    : Chinese
Default                     : Yes
Forced                      : No

Audio #1
ID                          : 2
Format                      : AC-3
Format/Info                 : Audio Coding 3
Commercial name             : Dolby Digital
Codec ID                    : A_AC3
Duration                    : 1 h 39 min
Bit rate mode               : Constant
Bit rate                    : 640 kb/s
Channel(s)                  : 2 channels
Channel layout              : L R
Sampling rate               : 48.0 kHz
Frame rate                  : 31.250 FPS (1536 SPF)
Bit depth                   : 16 bits
Compression mode            : Lossy
Stream size                 : 457 MiB (10%)
Title                       : 国语(台版)
Language                    : Chinese
Service kind                : Complete Main
Default                     : Yes
Forced                      : No

Audio #2
ID                          : 3
Format                      : AC-3
Format/Info                 : Audio Coding 3
Commercial name             : Dolby Digital
Codec ID                    : A_AC3
Duration                    : 1 h 39 min
Bit rate mode               : Constant
Bit rate                    : 640 kb/s
Channel(s)                  : 2 channels
Channel layout              : L R
Sampling rate               : 48.0 kHz
Frame rate                  : 31.250 FPS (1536 SPF)
Bit depth                   : 16 bits
Compression mode            : Lossy
Stream size                 : 457 MiB (10%)
Title                       : 国语(港版)
Language                    : Chinese
Service kind                : Complete Main
Default                     : No
Forced                      : No

Text
ID                          : 4
Format                      : UTF-8
Codec ID                    : S_TEXT/UTF8
Codec ID/Info               : UTF-8 Plain Text
Duration                    : 1 h 39 min
Bit rate                    : 31 b/s
Count of elements           : 930
Stream size                 : 22.6 KiB (0%)
Title                       : 简体中文
Language                    : Chinese
Default                     : Yes
Forced                      : No




链接:https://pan.baidu.com/s/1AvFvSpTfeDOWoPZBms5Q7A




已有 25 人购买  本主题需向作者支付 100 两金币 才能浏览 购买主题

飞哥 发表于 2020-2-24 16:56:48

这个还有加长版本啊,不知道加长片段有没有国配的啊。

有你才幸福 发表于 2020-2-24 17:44:13

有没有国配的啊

爱影无限 发表于 2020-2-24 18:51:28

看看这部电影谢谢

梦落死尘埃 发表于 2020-2-25 17:02:16

是非常好的资源啦!!!

这些年来 发表于 2020-3-22 03:15:47

这个要看一下,群星云集

柠檬可乐 发表于 2020-3-22 04:42:29

少见的片,看看

泰山 发表于 2020-3-26 11:34:00

支持完整版高清电影。

疯狂碟魔 发表于 2020-3-26 13:24:45

加长版多了什么情节

白袍将军赵云 发表于 2020-3-29 18:36:04

谢谢楼主分享

马克李 发表于 2021-9-27 20:31:54

买来看一下 加长的10分钟是什么内容

断云依水 发表于 2020-2-25 18:57:49

喜欢加长版,谢谢

史太虎 发表于 2020-2-25 21:29:00

好东西啊多十分钟啊 谢谢楼主啦

火柴 发表于 2020-2-26 09:58:37

羊总出山啦~~{:6_166:}

令正秀男 发表于 2020-3-13 20:36:55

谢谢楼主分享

乐士友 发表于 2020-3-15 08:59:22

感谢分享!
页: [1] 2 3
查看完整版本: [1983][港台][迷你特攻队]【加长版】[BDrip][双国语中字]

影视168论坛·免责声明
本站仅供网友自由讨论使用,所有个人言论均不代表本站立场,与本站立场无关,本站不会对其內容负任何责任。
本站内容均经过严格审查筛选,内容健康,如发现违反国家法律法规的內容,请立即联系我们,我们立刻从网站上删除,并致以最深的歉意。
广而告之:【影视168论坛】已经安全运行