好小子 发表于 2020-2-2 20:18:38



◎片  名 金燕子
◎年  代 1987
◎地      区    香港
◎类  别 剧情
◎语  言 国语 粤语
◎字  幕 简体中文
◎文件格式   mkv
◎视频尺寸 1027*556
◎文件大小 1.94GB
◎片  长 99:34
◎导  演 柯星沛
◎主  演   锺楚红

◎简  介 
剑神凤擎天一向以除魔伏妖为己任,与树妖姥姥决战后败伤而回。另书生洛知秋因追赶商旅不果而在黑山上邂逅一直为姥姥杀人的小雪。两人两情相悦,小雪更不惜放弃千年道行而与知秋结緍,正当他们过著愉快的生活时,姥姥的迫寻已开始……

◎截      图





General
Unique ID                   : 245039670423002754468474340604061985285 (0xB858EC8399636FBEBD6145E3F7B8AA05)
Complete name               :
Format                      : Matroska
Format version              : Version 4
File size                   : 1.94 GiB
Duration                    : 1 h 39 min
Overall bit rate            : 2 785 kb/s
Encoded date                : UTC 2019-05-27 23:24:13
Writing application         : mkvmerge v7.5.0 ('Glass Culture') 64bit built on Jan  4 2015 16:48:44
Writing library             : libebml v1.3.1 + libmatroska v1.4.2

Video
ID                          : 1
Format                      : AVC
Format/Info                 : Advanced Video Codec
Format profile              : High 10@L5.2
Format settings             : CABAC / 4 Ref Frames
Format settings, CABAC      : Yes
Format settings, Reference  : 4 frames
Codec ID                    : V_MPEG4/ISO/AVC
Duration                    : 1 h 39 min
Bit rate                    : 1 790 kb/s
Width                       : 1 024 pixels
Height                      : 556 pixels
Display aspect ratio        : 1.85:1
Frame rate mode             : Constant
Frame rate                  : 24.000 FPS
Color space                 : YUV
Chroma subsampling          : 4:2:0
Bit depth                   : 10 bits
Scan type                   : Progressive
Bits/(Pixel*Frame)          : 0.131
Stream size                 : 1.25 GiB (64%)
Title                       : 金燕子
Writing library             : x264 core 155 r2901 7d0ff22
Encoding settings           : cabac=1 / ref=3 / deblock=1:0:0 / analyse=0x3:0x113 / me=hex / subme=7 / psy=1 / psy_rd=1.00:0.00 / mixed_ref=1 / me_range=16 / chroma_me=1 / trellis=1 / 8x8dct=1 / cqm=0 / deadzone=21,11 / fast_pskip=1 / chroma_qp_offset=-2 / threads=6 / lookahead_threads=1 / sliced_threads=0 / nr=0 / decimate=1 / interlaced=0 / bluray_compat=0 / constrained_intra=0 / bframes=3 / b_pyramid=2 / b_adapt=1 / b_bias=0 / direct=1 / weightb=1 / open_gop=0 / weightp=2 / keyint=240 / keyint_min=24 / scenecut=40 / intra_refresh=0 / rc_lookahead=40 / rc=crf / mbtree=1 / crf=20.0 / qcomp=0.60 / qpmin=0 / qpmax=81 / qpstep=4 / vbv_maxrate=300000 / vbv_bufsize=300000 / crf_max=0.0 / nal_hrd=none / filler=0 / ip_ratio=1.40 / aq=1:1.00
Language                    : Chinese
Default                     : Yes
Forced                      : No

Audio #1
ID                          : 2
Format                      : AC-3
Format/Info                 : Audio Coding 3
Commercial name             : Dolby Digital
Codec ID                    : A_AC3
Duration                    : 1 h 39 min
Bit rate mode               : Constant
Bit rate                    : 224 kb/s
Channel(s)                  : 2 channels
Channel layout              : L R
Sampling rate               : 48.0 kHz
Frame rate                  : 31.250 FPS (1536 SPF)
Bit depth                   : 16 bits
Compression mode            : Lossy
Stream size                 : 160 MiB (8%)
Title                       : 国语(VCD)
Language                    : Chinese
Service kind                : Complete Main
Default                     : Yes
Forced                      : No

Audio #2
ID                          : 3
Format                      : AC-3
Format/Info                 : Audio Coding 3
Commercial name             : Dolby Digital
Codec ID                    : A_AC3
Duration                    : 1 h 39 min
Bit rate mode               : Constant
Bit rate                    : 384 kb/s
Channel(s)                  : 6 channels
Channel layout              : L R C LFE Ls Rs
Sampling rate               : 48.0 kHz
Frame rate                  : 31.250 FPS (1536 SPF)
Bit depth                   : 16 bits
Compression mode            : Lossy
Stream size                 : 273 MiB (14%)
Title                       : 国语(DVD)
Language                    : Chinese
Service kind                : Complete Main
Default                     : No
Forced                      : No

Audio #3
ID                          : 4
Format                      : AC-3
Format/Info                 : Audio Coding 3
Commercial name             : Dolby Digital
Codec ID                    : A_AC3
Duration                    : 1 h 39 min
Bit rate mode               : Constant
Bit rate                    : 384 kb/s
Channel(s)                  : 6 channels
Channel layout              : L R C LFE Ls Rs
Sampling rate               : 48.0 kHz
Frame rate                  : 31.250 FPS (1536 SPF)
Bit depth                   : 16 bits
Compression mode            : Lossy
Stream size                 : 273 MiB (14%)
Title                       : 粤语(DVD)
Language                    : Chinese
Service kind                : Complete Main
Default                     : No
Forced                      : No

Text
ID                          : 5
Format                      : UTF-8
Codec ID                    : S_TEXT/UTF8
Codec ID/Info               : UTF-8 Plain Text
Duration                    : 1 h 36 min
Bit rate                    : 40 b/s
Count of elements           : 1139
Stream size                 : 28.9 KiB (0%)
Title                       : 简体中文
Language                    : Chinese
Default                     : Yes
Forced                      : No


链接:https://pan.baidu.com/s/1gSt3551t4rGDQxOfupJolA



已有 28 人购买  本主题需向作者支付 100 两金币 才能浏览 购买主题

难得糊涂 发表于 2020-2-5 01:04:53

谢谢楼主分享

小石头 发表于 2020-2-2 21:00:53

不错的影片,谢谢分享

史太虎 发表于 2020-2-2 21:19:51

好东西啊 加长版 谢谢楼主啦

李先森 发表于 2020-2-2 23:01:36

谢谢,支持发帖

小小影苑 发表于 2020-2-2 23:35:14

谢谢楼主分享加长版!

江户川柯南 发表于 2020-3-1 23:06:25

好东西,感谢分享!{:6_176:}

小鑫 发表于 2020-7-30 20:37:08

不管是加长版还是完整版都要支持

赵氏孤儿 发表于 2021-2-23 20:59:25

看看加长版

缘分的天空 发表于 2020-2-3 09:30:02

加长版多了什么?

卜李 发表于 2020-2-3 09:49:13

感谢楼主分享

九十九度中 发表于 2020-2-3 13:47:17

好东西啊 加长版 谢谢楼主啦

飞哥 发表于 2020-2-3 17:11:30

加长片段不不知道是不是讲国语的啊。

一地鸡毛 发表于 2020-2-5 01:02:52

感谢楼主分享
页: [1] 2 3 4
查看完整版本: [香港][1987][金燕子]【加长版】[国粤语][简体中文][1.93GB]

影视168论坛·免责声明
本站仅供网友自由讨论使用,所有个人言论均不代表本站立场,与本站立场无关,本站不会对其內容负任何责任。
本站内容均经过严格审查筛选,内容健康,如发现违反国家法律法规的內容,请立即联系我们,我们立刻从网站上删除,并致以最深的歉意。
广而告之:【影视168论坛】已经安全运行