好小子 发表于 2019-2-27 13:28:08






◎片  名 逃学威龙2
◎年  代 1992
◎地      区    香港
◎类  别 喜剧
◎语  言 国语
◎字  幕 中英硬字幕
◎文件格式   mkv
◎视频尺寸 720*540
◎文件大小 2.32GB
◎片  长 127:41
◎导  演 陈嘉上
◎主  演   周星驰 吴孟达 张敏 朱茵

◎简  介 
周星星(周星驰 饰)圆满完成了校园任务后,以为可以升职,偏偏被调为交通警察。跟他一样立功的曹达华(吴孟达 饰)则继续以卧底的身份在学校内调查国际恐怖组织的案件。他的事业跌倒的低估,就连准备婚礼的钱都是女友阿敏(张敏 饰)的私己钱,令阿星十分无奈。为了证明自己的能力,他决定以个人的身份到学校协助曹达华,恐怖分子如期行动,双方开始奋战。   

◎截      图














General
Unique ID                   : 231521086237880232728316357804099239904 (0xAE2D56DAAD881DD2BB1EDCACA4A1FFE0)
Complete name               : 逃学威龙2-台.mkv
Format                      : Matroska
Format version              : Version 4 / Version 2
File size                   : 2.32 GiB
Duration                    : 2 h 7 min
Overall bit rate            : 2 603 kb/s
Encoded date                : UTC 2019-02-26 13:41:28
Writing application         : mkvmerge v7.5.0 ('Glass Culture') 64bit built on Jan  4 2015 16:48:44
Writing library             : libebml v1.3.1 + libmatroska v1.4.2

Video
ID                          : 1
Format                      : AVC
Format/Info                 : Advanced Video Codec
Format profile              : High 10@L5.2
Format settings, CABAC      : Yes
Format settings, ReFrames   : 4 frames
Codec ID                    : V_MPEG4/ISO/AVC
Duration                    : 2 h 7 min
Bit rate                    : 2 153 kb/s
Width                       : 720 pixels
Height                      : 540 pixels
Display aspect ratio        : 4:3
Frame rate mode             : Constant
Frame rate                  : 23.976 (24000/1001) FPS
Color space                 : YUV
Chroma subsampling          : 4:2:0
Bit depth                   : 10 bits
Scan type                   : Progressive
Bits/(Pixel*Frame)          : 0.231
Stream size                 : 1.92 GiB (83%)
Title                       : 逃学威龙2
Writing library             : x264 core 155 r2901 7d0ff22
Encoding settings           : cabac=1 / ref=3 / deblock=1:0:0 / analyse=0x3:0x113 / me=hex / subme=7 / psy=1 / psy_rd=1.00:0.00 / mixed_ref=1 / me_range=16 / chroma_me=1 / trellis=1 / 8x8dct=1 / cqm=0 / deadzone=21,11 / fast_pskip=1 / chroma_qp_offset=-2 / threads=6 / lookahead_threads=1 / sliced_threads=0 / nr=0 / decimate=1 / interlaced=0 / bluray_compat=0 / constrained_intra=0 / bframes=3 / b_pyramid=2 / b_adapt=1 / b_bias=0 / direct=1 / weightb=1 / open_gop=0 / weightp=2 / keyint=240 / keyint_min=23 / scenecut=40 / intra_refresh=0 / rc_lookahead=40 / rc=crf / mbtree=1 / crf=20.0 / qcomp=0.60 / qpmin=0 / qpmax=81 / qpstep=4 / vbv_maxrate=300000 / vbv_bufsize=300000 / crf_max=0.0 / nal_hrd=none / filler=0 / ip_ratio=1.40 / aq=1:1.00
Language                    : Chinese
Default                     : Yes
Forced                      : No

Audio
ID                          : 2
Format                      : AC-3
Format/Info                 : Audio Coding 3
Mode extension              : CM (complete main)
Format settings, Endianness : Big
Codec ID                    : A_AC3
Duration                    : 2 h 7 min
Bit rate mode               : Constant
Bit rate                    : 448 kb/s
Channel(s)                  : 6 channels
Channel positions           : Front: L C R, Side: L R, LFE
Sampling rate               : 48.0 kHz
Frame rate                  : 31.250 FPS (1536 spf)
Bit depth                   : 16 bits
Compression mode            : Lossy
Stream size                 : 409 MiB (17%)
Title                       : 国语
Language                    : Chinese
Default                     : Yes
Forced                      : No
链接:https://pan.baidu.com/s/1eW2-_1_o18gPSu_fsiT2Sg


◎下载地址

已有 7 人购买  本主题需向作者支付 800 两金币 才能浏览 购买主题

陈绵 发表于 2020-8-28 11:22:01

看看台版的是什么样子的

港片影迷 发表于 2019-4-10 22:22:33

你好感谢楼主的分享,我下载了楼主的127分钟的逃学威龙,发现还是少了几分钟,具体在你版本的28分钟10秒后,吴孟达开车在阿星路边烤鸡翅处停下,吃了阿星一根烤肠,并交流了几句,而楼主版是直接跳到后面的办案现场,我有这个少的部分的片子,希望提供给楼主补足

云鹤游天 发表于 2021-10-7 16:03:27

港片影迷 发表于 2019-4-10 22:22
你好感谢楼主的分享,我下载了楼主的127分钟的逃学威龙,发现还是少了几分钟,具体在你版本的28分钟10秒后 ...

不知道箱子什么时候出一个

云鹤游天 发表于 2019-2-27 15:39:52

可惜了这个清晰度,时长很完整。

電影人 发表于 2019-2-27 20:49:29

{:6_165:}      支持下。 谢谢      

飞哥 发表于 2019-2-27 21:30:20

这个跟东森版不知道有何区别啊。

逝水怀念 发表于 2019-3-9 18:55:20

感谢分享辛苦了!

港片影迷 发表于 2019-4-9 23:48:56

这部电影好像国语好像有两个版本,有一个不是石班鱼配音的,这个版本不知周星驰是谁配的?

又出去走走 发表于 2019-4-25 21:43:08


感谢分享辛苦

黄家玺 发表于 2020-9-3 16:30:34

哈哈哈哈哈哈哈
页: [1] 2
查看完整版本: [香港][1992][逃学威龙2][国语中英字][MKV/2.32GB][台版127分钟]

影视168论坛·免责声明
本站仅供网友自由讨论使用,所有个人言论均不代表本站立场,与本站立场无关,本站不会对其內容负任何责任。
本站内容均经过严格审查筛选,内容健康,如发现违反国家法律法规的內容,请立即联系我们,我们立刻从网站上删除,并致以最深的歉意。
广而告之:【影视168论坛】已经安全运行