好小子 发表于 2019-2-12 14:26:07


導演:楊靜塵
  編劇:柳松柏、謝武雄
  主演:王冠雄、宗華、龍君兒、李強、史仲田、谷曼青、盧迪、陳信一、古錚、關洪、馬如風、孫嵐、張宗貴、朱少華、蕭堯、史亭根、蘇國樑
  動作設計:李強、關洪
  監製:甘梁愛、蔡中正
  出品人:蔡金河、李強
  出品公司:金之塔電影事業有限公司

[attach]90602[/attach]

General
Complete name               :龙拳虎爪斗刁手.mpg
Format                      : MPEG-PS
File size                   : 885 MiB
Duration                    : 1 h 27 min
Overall bit rate mode       : Constant
Overall bit rate            : 1 407 kb/s

Video
ID                          : 224 (0xE0)
Format                      : MPEG Video
Format version              : Version 1
Format settings, BVOP       : No
Format settings, Matrix     : Default
Format settings, GOP        : N=15
Duration                    : 1 h 27 min
Bit rate mode               : Constant
Bit rate                    : 1 150 kb/s
Width                       : 352 pixels
Height                      : 288 pixels
Display aspect ratio        : 4:3
Frame rate                  : 25.000 FPS
Standard                    : PAL
Color space                 : YUV
Chroma subsampling          : 4:2:0
Bit depth                   : 8 bits
Scan type                   : Progressive
Compression mode            : Lossy
Bits/(Pixel*Frame)          : 0.454
Time code of first frame    : 00:00:00:00
Time code source            : Group of pictures header
GOP, Open/Closed            : Open
GOP, Open/Closed of first f : Closed
Stream size                 : 727 MiB (82%)

Audio
ID                          : 192 (0xC0)
Format                      : MPEG Audio
Format version              : Version 1
Format profile              : Layer 2
Duration                    : 1 h 27 min
Bit rate mode               : Constant
Bit rate                    : 224 kb/s
Channel(s)                  : 2 channels
Sampling rate               : 44.1 kHz
Compression mode            : Lossy
Stream size                 : 141 MiB (16%)




链接:链接: [url]https://pan.baidu.com/s/1x5_wAIyQSekvXvZMU78fuQ[/url]

已有 22 人购买  本主题需向作者支付 10 两金币 才能浏览 购买主题

婷儿最爱吃草莓 发表于 2020-3-29 16:05:25

啧啧啧啧啧啧嘻嘻嘻嘻嘻

渣江小霸王 发表于 2020-4-24 21:55:17

买买买买买买买买买买买买

王王王 发表于 2020-7-14 14:02:57

收下来试看几次。

笨笨 发表于 2020-7-24 12:50:46

谢谢分享 收藏

美丽蓝天 发表于 2020-8-25 09:06:26

国语无字.国语无字

山中道 发表于 2020-10-31 21:07:27

谢谢楼主,喜欢老片

电子销售 发表于 2020-11-25 10:55:28

下载看看,经典资源

铁血精英 发表于 2019-2-12 20:24:03

谢谢楼主,喜欢老片

铁血精英 发表于 2019-2-12 20:24:42

谢谢楼主,喜欢老片

陈国斌 发表于 2019-2-12 21:46:09

鹰爪王 发表于 2019-2-12 22:06:36

提取码在哪里?

有你才幸福 发表于 2019-2-13 20:49:14

太谢谢了太谢谢了

神龙摆尾 发表于 2019-2-14 01:16:50

好电影我喜爱

曾宪荣 发表于 2019-2-14 07:36:32

谢谢楼主,就喜欢武侠片(武打片)

罗克江 发表于 2019-9-10 03:35:33

贵阳放空管高峰个

婷儿爱吃草莓 发表于 2019-10-22 11:31:44

谢谢分享好片子
页: [1] 2 3
查看完整版本: [1979][台湾][龙拳虎爪斗刁手][国语无字][mpg][885MB]

影视168论坛·免责声明
本站仅供网友自由讨论使用,所有个人言论均不代表本站立场,与本站立场无关,本站不会对其內容负任何责任。
本站内容均经过严格审查筛选,内容健康,如发现违反国家法律法规的內容,请立即联系我们,我们立刻从网站上删除,并致以最深的歉意。
广而告之:【影视168论坛】已经安全运行