好小子 发表于 2019-2-4 20:10:35






◎片  名 醉拳
◎年  代 1978
◎地      区 香港
◎类  别 动作
◎语  言 国语 粤语
◎字  幕 简体中文 繁体中文
◎文件格式  mkv
◎视频尺寸 1920*802
◎文件大小 约9.04GB
◎片  长 约113分钟
◎导  演 袁和平
◎主  演   成龙 袁小田 黄正利

◎简  介 
    广东武术界名人黄麒英自儿子黄飞鸿(成龙)小时候起就严格训练其习武,可惜黄飞鸿少年时代年轻气盛,经常用三脚猫功夫在外惹事生非,武学上一直无大的长进。直到某次较量中被人打得落花流水且受到侮辱,黄飞鸿才发誓要拜苏乞儿(袁小田)为师好好习武。
  由于苏乞儿懒于收徒,加上对黄飞鸿的人品很不信任,他开出了种种苛刻条件。为表决心,黄飞鸿一一应允并努力将它们全都实现,终以真心将苏乞儿打动,令其将醉拳传授给了他,黄飞鸿渐从一名莽撞的少年成长为一个见义勇为的年轻人。

◎截      图













General
Unique ID                   : 209222098269234289535611327933005975791 (0x9D66B5DD5396F88EAC11D0F4B6B450EF)
Complete name               : 醉拳.mkv
Format                      : Matroska
Format version              : Version 4 / Version 2
File size                   : 9.04 GiB
Duration                    : 1 h 52 min
Overall bit rate mode       : Variable
Overall bit rate            : 11.5 Mb/s
Encoded date                : UTC 2017-09-20 11:16:24
Writing application         : mkvmerge v7.5.0 ('Glass Culture') 64bit built on Jan  4 2015 16:48:44
Writing library             : libebml v1.3.1 + libmatroska v1.4.2

Video
ID                          : 1
Format                      : AVC
Format/Info                 : Advanced Video Codec
Format profile              : High 10@L5.2
Format settings, CABAC      : Yes
Format settings, ReFrames   : 4 frames
Codec ID                    : V_MPEG4/ISO/AVC
Duration                    : 1 h 52 min
Bit rate                    : 10 000 kb/s
Width                       : 1 920 pixels
Height                      : 802 pixels
Display aspect ratio        : 2.40:1
Frame rate mode             : Constant
Frame rate                  : 23.976 (24000/1001) FPS
Color space                 : YUV
Chroma subsampling          : 4:2:0
Bit depth                   : 10 bits
Scan type                   : Progressive
Bits/(Pixel*Frame)          : 0.271
Stream size                 : 7.89 GiB (87%)
Title                       : 醉拳
Writing library             : x264 core 152 r2851 ba24899
Encoding settings           : cabac=1 / ref=3 / deblock=1:0:0 / analyse=0x3:0x113 / me=hex / subme=7 / psy=1 / psy_rd=1.00:0.00 / mixed_ref=1 / me_range=16 / chroma_me=1 / trellis=1 / 8x8dct=1 / cqm=0 / deadzone=21,11 / fast_pskip=1 / chroma_qp_offset=-2 / threads=6 / lookahead_threads=1 / sliced_threads=0 / nr=0 / decimate=1 / interlaced=0 / bluray_compat=0 / constrained_intra=0 / bframes=3 / b_pyramid=2 / b_adapt=1 / b_bias=0 / direct=1 / weightb=1 / open_gop=0 / weightp=2 / keyint=240 / keyint_min=23 / scenecut=40 / intra_refresh=0 / rc_lookahead=40 / rc=2pass / mbtree=1 / bitrate=10000 / ratetol=1.0 / qcomp=0.60 / qpmin=0 / qpmax=81 / qpstep=4 / cplxblur=20.0 / qblur=0.5 / vbv_maxrate=300000 / vbv_bufsize=300000 / nal_hrd=none / filler=0 / ip_ratio=1.40 / aq=1:1.00
Language                    : Chinese
Default                     : Yes
Forced                      : No

Audio #1
ID                          : 2
Format                      : AC-3
Format/Info                 : Audio Coding 3
Mode extension              : CM (complete main)
Format settings, Endianness : Big
Codec ID                    : A_AC3
Duration                    : 1 h 52 min
Bit rate mode               : Constant
Bit rate                    : 192 kb/s
Channel(s)                  : 2 channels
Channel positions           : Front: L R
Sampling rate               : 48.0 kHz
Frame rate                  : 31.250 FPS (1536 spf)
Bit depth                   : 16 bits
Compression mode            : Lossy
Stream size                 : 155 MiB (2%)
Title                       : 国语
Language                    : Chinese
Default                     : Yes
Forced                      : No

Audio #2
ID                          : 3
Format                      : FLAC
Format/Info                 : Free Lossless Audio Codec
Codec ID                    : A_FLAC
Duration                    : 1 h 52 min
Bit rate mode               : Variable
Bit rate                    : 683 kb/s
Channel(s)                  : 1 channel
Channel positions           : Front: C
Sampling rate               : 48.0 kHz
Frame rate                  : 11.719 FPS (4096 spf)
Bit depth                   : 24 bits
Stream size                 : 552 MiB (6%)
Title                       : 粤语
Writing library             : libFLAC 1.3.2 (UTC 2017-01-01)
Language                    : Chinese
Default                     : No
Forced                      : No

Audio #3
ID                          : 4
Format                      : AC-3
Format/Info                 : Audio Coding 3
Mode extension              : CM (complete main)
Format settings, Endianness : Big
Codec ID                    : A_AC3
Duration                    : 1 h 52 min
Bit rate mode               : Constant
Bit rate                    : 384 kb/s
Channel(s)                  : 6 channels
Channel positions           : Front: L C R, Side: L R, LFE
Sampling rate               : 48.0 kHz
Frame rate                  : 31.250 FPS (1536 spf)
Bit depth                   : 16 bits
Compression mode            : Lossy
Stream size                 : 310 MiB (3%)
Title                       : 粤语
Language                    : Chinese
Default                     : No
Forced                      : No

Audio #4
ID                          : 5
Format                      : AC-3
Format/Info                 : Audio Coding 3
Mode extension              : CM (complete main)
Format settings, Endianness : Big
Codec ID                    : A_AC3
Duration                    : 1 h 52 min
Bit rate mode               : Constant
Bit rate                    : 192 kb/s
Channel(s)                  : 2 channels
Channel positions           : Front: L R
Sampling rate               : 48.0 kHz
Frame rate                  : 31.250 FPS (1536 spf)
Bit depth                   : 16 bits
Compression mode            : Lossy
Stream size                 : 155 MiB (2%)
Title                       : 粤语
Language                    : Chinese
Default                     : No
Forced                      : No

Text #1
ID                          : 6
Format                      : VobSub
Muxing mode                 : zlib
Codec ID                    : S_VOBSUB
Codec ID/Info               : Picture based subtitle format used on DVDs
Duration                    : 1 h 50 min
Bit rate                    : 1 469 b/s
Count of elements           : 921
Stream size                 : 1.16 MiB (0%)
Title                       : 简体中文
Language                    : Chinese
Default                     : Yes
Forced                      : No

Text #2
ID                          : 7
Format                      : VobSub
Muxing mode                 : zlib
Codec ID                    : S_VOBSUB
Codec ID/Info               : Picture based subtitle format used on DVDs
Duration                    : 1 h 50 min
Bit rate                    : 1 501 b/s
Count of elements           : 921
Stream size                 : 1.19 MiB (0%)
Title                       : 繁体中文
Language                    : Chinese
Default                     : No
Forced                      : No



moc版蓝光+HKL版DVD+其他

◎下载地址
链接:https://pan.baidu.com/s/1dA7R2VtSV7lgc7ZPR9KmvQ




已有 18 人购买  本主题需向作者支付 500 两金币 才能浏览 购买主题

红尘过客 发表于 2020-7-19 21:21:48

收了谢谢上传分享,论坛有你更精彩

星冰悦 发表于 2020-9-6 11:51:59

谢谢楼主,看看这版如何!

叶婵敏阿姨 发表于 2020-9-20 22:22:05

尤里卡4K+HKL英版DVD,看看时长有多少

神龙摆尾 发表于 2020-12-28 21:42:55

好电影我的最爱。。。

李璇 发表于 2021-1-11 23:44:30

收藏了谢谢分享

曾宪荣 发表于 2019-2-5 14:27:22

谢谢楼主,看看这版如何!

史太虎 发表于 2019-2-5 15:12:20

好东西啊 谢谢楼主发片

缘分的天空 发表于 2019-2-5 16:41:48

加长版都多了什么?

爱影无限 发表于 2019-2-6 22:12:20

看看这部电影

鱼子酱爱花生 发表于 2019-2-9 18:42:50

nnnnnnnnnnnn

金属上帝 发表于 2019-2-11 16:48:24

最初版配音吧

小李李 发表于 2019-3-3 22:45:39


谢谢楼主,看看这版如何!

飞尘 发表于 2020-2-16 13:05:52

感谢楼主发片

断云依水 发表于 2020-2-25 18:59:43

楼主加长版存货不少啊
页: [1] 2
查看完整版本: [香港][1978][醉拳][国粤语简繁中字][BDRip][mkv/9.04GB][加长版]

影视168论坛·免责声明
本站仅供网友自由讨论使用,所有个人言论均不代表本站立场,与本站立场无关,本站不会对其內容负任何责任。
本站内容均经过严格审查筛选,内容健康,如发现违反国家法律法规的內容,请立即联系我们,我们立刻从网站上删除,并致以最深的歉意。
广而告之:【影视168论坛】已经安全运行